<?xml version="1.0" standalone="no"?>
<!DOCTYPE svg PUBLIC "-//W3C//DTD SVG 1.1//EN" "http://www.w3.org/Graphics/SVG/1.1/DTD/svg11.dtd">
<svg xmlns="http://www.w3.org/2000/svg">
<defs >
<font id="Dosis" horiz-adv-x="457" ><font-face
    font-family="Dosis"
    units-per-em="1000"
    panose-1="2 1 6 3 2 2 2 6 0 3"
    ascent="1027"
    descent="-237"
    alphabetic="0" />
<glyph unicode=" " glyph-name="space" horiz-adv-x="200" />
<glyph unicode="!" glyph-name="exclam" horiz-adv-x="209" d="M52 46Q52 68 67 83T105 99Q126 99 141 84T156 46Q156 25 141 10T105 -6Q83 -6 68 9T52 46ZM59 698Q59 718 71 729T104 741Q123 741 136 730T149 698Q149 621 143 451T137 202Q137 190 126 183T104
175Q90 175 81 182T71 202Q71 280 65 450T59 698Z" />
<glyph unicode="&quot;" glyph-name="quotedbl" horiz-adv-x="279" d="M35 743Q35 754 46 761T71 768T96 761T108 743L98 598Q98 587 91 580T71 572Q45 572 45 598L35 743ZM171 743Q171 754 182 761T207 768T232 761T244 743L234 598Q234 587 227 580T207 572Q181
572 181 598L171 743Z" />
<glyph unicode="#" glyph-name="numbersign" horiz-adv-x="609" d="M24 275Q24 289 31 298T49 308H155L179 457H88Q60 457 60 489Q60 503 67 512T84 521H191L220 694Q223 713 253 713Q270 713 281 704T292 678L266 521H389L417 694Q420 713 450 713Q467 713 478
704T490 678L464 521H556Q567 521 576 512T585 489Q585 476 577 467T559 457H453L428 308H520Q531 308 540 299T549 275Q549 262 541 253T523 244H416L386 55Q384 46 374 40T352 33Q335 33 323 42T311 67L340 244H219L188 56Q186 46 175 40T155 33Q138 33 127 42T115
67L142 244H52Q24 244 24 275ZM231 308H352L376 457H255L231 308Z" />
<glyph unicode="$" glyph-name="dollar" horiz-adv-x="506" d="M35 115Q35 131 46 146T72 161Q80 161 94 149T122 123T168 96T238 81V347L184 367Q165 374 136 391T92 425T65 472T53 539Q53 584 69 618T112 673T171 703T238 717V747Q238 755 245 761T264 768Q274
768 282 762T290 747V719Q350 716 399 699T448 653Q448 639 438 623T412 607Q407 607 370 624T290 644V416Q329 402 354 389T408 352T451 292T466 206Q466 118 419 67T290 5V-31Q290 -39 282 -45T264 -52Q253 -52 246 -46T238 -31V2Q152 3 94 41T35 115ZM133 547Q133
500 160 477T242 433V643Q133 632 133 547ZM286 83Q386 99 386 198Q386 250 360 279T286 328V83Z" />
<glyph unicode="%" glyph-name="percent" horiz-adv-x="765" d="M36 463V613Q36 674 71 702T165 731Q223 731 258 703T294 613V463Q294 402 259 374T165 345Q106 345 71 373T36 463ZM96 463Q96 398 165 398T234 463V613Q234 678 165 678T96 613V463ZM167 0Q167
7 170 13L545 755Q552 770 570 770Q583 770 593 761T604 737Q604 730 601 723L227 -14Q220 -30 199 -30Q186 -30 177 -21T167 0ZM471 115V265Q471 326 506 354T600 383Q658 383 693 355T729 265V115Q729 54 694 26T600 -3Q541 -3 506 25T471 115ZM531 115Q531 50
600 50T669 115V265Q669 330 600 330T531 265V115Z" />
<glyph unicode="&amp;" glyph-name="ampersand" horiz-adv-x="618" d="M30 205Q30 274 68 325T163 405Q126 448 106 487T85 575Q85 655 139 701T274 748Q350 748 398 713T446 646Q446 630 435 619T407 607Q397 607 386 618T363 643T329 667T276 679Q227 679 198
650T168 570Q168 539 185 506T217 454T264 401L455 193Q484 257 486 362Q487 378 495 385T523 392T551 382T559 350Q559 234 507 139L596 44Q603 36 603 27Q603 14 591 3T564 -8Q553 -8 542 3L466 83Q390 -10 265 -10Q158 -10 94 52T30 205ZM115 212Q115 150 158
108T276 65Q368 65 415 136L210 354Q183 338 166 323T132 278T115 212Z" />
<glyph unicode="&apos;" glyph-name="quotesingle" horiz-adv-x="143" d="M35 743Q35 754 46 761T71 768T96 761T108 743L98 598Q98 587 91 580T71 572Q45 572 45 598L35 743Z" />
<glyph unicode="(" glyph-name="parenleft" horiz-adv-x="310" d="M57 155V579Q57 658 115 713T251 768Q292 768 292 731Q292 714 284 704T263 693Q208 693 175 659T141 579V155Q141 100 177 78T263 55Q292 55 292 17Q292 -20 249 -20Q168 -20 113 25T57 155Z" />
<glyph unicode=")" glyph-name="parenright" horiz-adv-x="310" d="M18 17Q18 55 47 55Q97 55 133 77T169 155V579Q169 624 136 658T47 693Q34 693 26 703T18 731Q18 768 59 768Q137 768 195 713T253 579V155Q253 71 198 26T60 -20Q18 -20 18 17Z" />
<glyph unicode="*" glyph-name="asterisk" horiz-adv-x="438" d="M28 586Q28 599 37 609T61 620Q66 620 70 619L192 577L187 702Q189 731 219 731Q250 731 252 702L247 575L369 619Q372 620 379 620Q391 620 400 609T410 584Q410 562 389 556L268 523L347 416Q352
409 352 399Q352 385 341 376T316 366Q301 366 293 378L219 487L145 377Q139 366 124 366Q112 366 100 375T87 397Q87 409 94 417L171 520L49 556Q28 562 28 586Z" />
<glyph unicode="+" glyph-name="plus" horiz-adv-x="431" d="M26 240Q26 255 34 265T55 276H179V400Q179 412 190 421T216 430T241 421T251 400V276H375Q387 276 396 266T405 240T396 215T375 205H251V80Q251 67 242 59T216 51T190 59T179 80V205H55Q42 205 34
214T26 240Z" />
<glyph unicode="," glyph-name="comma" horiz-adv-x="176" d="M36 46Q36 68 50 83T87 99Q108 99 123 84T139 46Q139 28 96 -75Q90 -89 74 -89Q63 -89 54 -83T45 -65Q45 -58 47 -54L68 -2Q36 11 36 46Z" />
<glyph unicode="-" glyph-name="hyphen" horiz-adv-x="413" d="M47 240Q47 255 55 265T76 276H336Q348 276 357 266T366 240T357 215T336 205H76Q47 205 47 240Z" />
<glyph unicode="." glyph-name="period" horiz-adv-x="176" d="M37 46Q37 68 52 83T89 99Q110 99 125 84T140 46Q140 25 125 10T89 -6Q67 -6 52 9T37 46Z" />
<glyph unicode="/" glyph-name="slash" horiz-adv-x="475" d="M19 0Q19 9 22 13L397 755Q404 770 421 770Q434 770 445 761T456 737Q456 730 452 723L79 -14Q72 -30 51 -30Q37 -30 28 -21T19 0Z" />
<glyph unicode="0" glyph-name="zero" horiz-adv-x="541" d="M55 212V513Q55 626 113 678T270 731T427 679T486 513V212Q486 99 427 47T270 -6T114 46T55 212ZM139 212Q139 70 270 70Q333 70 367 105T402 212V513Q402 584 368 619T270 655Q139 655 139 513V212ZM231
345T231 362T242 390T271 401Q288 401 299 390T310 362T299 334T271 322Q253 322 242 333Z" />
<glyph unicode="1" glyph-name="one" horiz-adv-x="248" d="M9 575Q9 596 27 610L119 719Q132 732 145 732Q159 732 170 724T182 702V30Q182 16 170 8T140 0T111 8T98 30V606L61 551Q51 540 40 540Q27 540 18 550T9 575Z" />
<glyph unicode="2" glyph-name="two" horiz-adv-x="484" d="M32 30V127Q32 172 66 215T150 294L247 366Q296 401 330 444T365 533Q365 581 334 617T243 653Q193 653 162 625T130 544Q130 531 118 521T86 511Q48 511 48 560Q48 635 104 683T243 731Q331 731 390
676T449 536Q449 486 425 440T364 362T284 298L204 241Q168 216 144 186T119 127V76H426Q438 76 446 65T455 38Q455 23 447 12T426 0H70Q57 0 45 8T32 30Z" />
<glyph unicode="3" glyph-name="three" horiz-adv-x="497" d="M26 164Q26 187 34 195T65 203Q89 203 98 195T108 170Q108 132 140 101T239 70Q373 70 373 208V227Q373 349 239 349Q210 349 210 384T239 419Q297 419 326 445T355 539Q355 656 243 656Q179 656 153
628T126 560Q126 523 86 523Q59 523 51 532T42 566T51 617T82 670T145 714T245 731Q436 731 436 554Q436 491 414 447T355 386Q457 345 457 227V208Q457 98 397 46T239 -6Q136 -6 81 46T26 164Z" />
<glyph unicode="4" glyph-name="four" horiz-adv-x="460" d="M5 201Q5 212 10 220L257 707Q270 731 295 731Q309 731 322 722T336 698Q336 691 332 684L113 248H286V416Q286 430 298 437T328 445T357 438T370 416V248H423Q437 248 445 236T453 208Q453 193 444
181T423 168H370V30Q370 16 358 8T328 0T299 8T286 30V168H36Q22 168 14 177T5 201Z" />
<glyph unicode="5" glyph-name="five" horiz-adv-x="485" d="M25 167Q25 207 67 207T109 173Q109 125 146 98T240 70Q303 70 337 105T372 210V229Q372 297 338 331T241 366H99Q60 366 60 399Q60 409 62 421L83 701Q85 731 105 731H393Q406 731 413 720T420 693T413
667T393 655H156L141 436H241Q339 436 397 386T456 229V210Q456 99 397 47T241 -6Q141 -6 83 44T25 167Z" />
<glyph unicode="6" glyph-name="six" horiz-adv-x="526" d="M55 212V513Q55 626 114 678T274 731T430 679T486 557Q486 520 447 520Q403 520 403 553Q403 599 366 627T272 655Q139 655 139 513V373Q187 435 285 435Q486 435 486 233V212Q486 99 428 47T271 -6T114
46T55 212ZM139 208Q139 66 271 66Q402 66 402 208V229Q402 365 271 365Q139 365 139 238V208Z" />
<glyph unicode="7" glyph-name="seven" horiz-adv-x="470" d="M24 550V701Q24 712 36 721T62 731H417Q430 731 442 722T455 701V608Q455 591 441 565L157 12Q150 -2 130 -2T95 9T79 38Q79 47 83 55L371 598V655H108V550Q108 537 96 529T66 520T37 528T24 550Z" />
<glyph unicode="8" glyph-name="eight" horiz-adv-x="511" d="M40 200V212Q40 356 152 399Q61 435 61 555Q61 731 256 731Q450 731 450 555Q450 436 360 399Q471 355 471 212V200Q471 94 413 44T256 -6T99 44T40 200ZM124 208Q124 66 256 66Q319 66 353 101T387
208V224Q387 294 353 328T256 362Q124 362 124 224V208ZM143 547Q143 434 256 434T369 547Q369 659 256 659T143 547Z" />
<glyph unicode="9" glyph-name="nine" horiz-adv-x="526" d="M40 168Q40 205 80 205Q124 205 124 172Q124 126 161 98T254 70Q387 70 387 212V352Q340 290 241 290Q40 290 40 492V513Q40 626 98 678T255 731T412 679T471 513V212Q471 99 412 47T252 -6T96 46T40
168ZM124 496Q124 360 256 360Q387 360 387 487V517Q387 659 255 659Q124 659 124 517V496Z" />
<glyph unicode=":" glyph-name="colon" horiz-adv-x="209" d="M53 46Q53 68 68 83T105 99Q126 99 141 84T156 46Q156 25 141 10T105 -6Q83 -6 68 9T53 46ZM53 369Q53 391 68 406T105 422Q126 422 141 407T156 369Q156 348 141 333T105 317Q83 317 68 332T53 369Z" />
<glyph unicode=";" glyph-name="semicolon" horiz-adv-x="215" d="M55 46Q55 68 69 83T106 99Q127 99 142 84T158 46Q158 28 115 -75Q109 -89 93 -89Q82 -89 73 -83T64 -65Q64 -58 66 -54L87 -2Q55 11 55 46ZM58 369Q58 391 73 406T110 422Q131 422 146 407T161
369Q161 348 146 333T110 317Q88 317 73 332T58 369Z" />
<glyph unicode="&lt;" glyph-name="less" horiz-adv-x="403" d="M22 256T22 277T40 311L307 486Q312 490 320 490Q334 490 346 478T359 450Q359 433 346 426L121 277L346 129Q359 120 359 104T347 77T320 65Q312 65 307 69L40 244Q22 256 22 277Z" />
<glyph unicode="=" glyph-name="equal" horiz-adv-x="438" d="M63 160Q63 175 71 185T92 196H346Q358 196 367 186T376 160Q376 144 367 134T346 124H92Q63 124 63 160ZM63 363Q63 378 71 388T92 399H346Q358 399 367 389T376 363Q376 347 367 337T346 327H92Q63
327 63 363Z" />
<glyph unicode="&gt;" glyph-name="greater" horiz-adv-x="403" d="M44 88T44 104T57 129L282 277L57 426Q44 433 44 450Q44 466 56 478T83 490Q91 490 96 486L363 311Q381 298 381 277T363 244L96 69Q91 65 83 65Q69 65 57 76Z" />
<glyph unicode="?" glyph-name="question" horiz-adv-x="408" d="M22 653Q22 683 69 712T184 741Q275 741 326 692T378 566Q378 525 362 487T328 429T282 382T248 348Q223 323 217 293T210 202Q210 175 176 175Q144 175 144 212Q144 333 192 381Q199 388 218 405T250
435T277 467T298 509T306 559Q306 614 273 644T180 675Q149 675 127 667T95 648T75 629T54 620Q42 620 32 629T22 653ZM124 46Q124 68 139 83T176 99Q198 99 213 84T228 46Q228 25 213 10T176 -6Q155 -6 140 9T124 46Z" />
<glyph unicode="@" glyph-name="at" horiz-adv-x="722" d="M49 214Q49 368 129 464T371 561Q522 561 604 476T686 236Q686 145 655 86T557 26Q519 26 492 45T458 93Q430 63 403 49T335 34Q280 34 245 61T209 145Q209 210 259 235T407 261H447V279Q447 359 353
359Q316 359 288 347T258 334Q248 334 241 346T233 368Q233 390 274 405T364 421Q431 421 471 388T512 292V125Q515 102 529 89T562 76Q627 76 627 226Q627 361 563 433T370 505Q298 505 246 482T164 417T122 325T108 215Q108 159 120 113T157 27T229 -35T339 -57Q390
-57 433 -42T478 -27Q488 -27 495 -36T502 -53Q502 -76 446 -93T330 -111Q274 -111 225 -91T135 -33T72 69T49 214ZM279 145Q279 85 346 85Q390 85 419 111T449 167V216H413Q347 216 313 201T279 145Z" />
<glyph unicode="A" glyph-name="A" horiz-adv-x="550" d="M17 35Q17 37 19 43L223 708Q232 737 275 737T327 708L531 43Q531 41 531 39T532 36Q532 22 516 11T480 0Q456 0 450 19L406 168H143L99 19Q93 0 68 0Q50 0 34 10T17 35ZM162 237H386L275 613L162 237Z" />
<glyph unicode="B" glyph-name="B" horiz-adv-x="545" d="M71 29V701Q71 715 82 723T109 731H281Q375 731 429 694T484 560Q484 498 462 456T399 396Q450 376 476 337T502 226V208Q502 100 448 50T304 0H109Q92 0 82 8T71 29ZM155 76H290Q418 76 418 213V230Q418
299 386 330T290 361H155V76ZM155 431H280Q342 431 371 459T400 548Q400 655 277 655H155V431Z" />
<glyph unicode="C" glyph-name="C" horiz-adv-x="531" d="M64 212V513Q64 625 123 678T279 731Q377 731 436 682T495 557Q495 530 485 521T453 511Q413 511 411 540Q405 655 281 655Q148 655 148 513V212Q148 70 284 70Q323 70 349 81T387 113T404 149T411 189Q414
218 453 218Q475 218 485 208T495 171Q495 95 436 45T278 -6Q183 -6 124 47T64 212Z" />
<glyph unicode="D" glyph-name="D" horiz-adv-x="566" d="M71 29V702Q71 714 81 722T109 731H286Q384 731 443 679T502 513V218Q502 105 443 53T286 0H109Q92 0 82 8T71 29ZM155 76H286Q349 76 383 111T418 218V513Q418 584 384 619T286 655H155V76Z" />
<glyph unicode="E" glyph-name="E" horiz-adv-x="514" d="M71 30V701Q71 715 82 723T109 731H465Q479 731 486 720T494 694Q494 678 486 667T465 655H155V401H311Q324 401 332 391T340 365Q340 352 333 342T311 331H155V76H465Q478 76 486 65T494 37Q494 22 487
11T465 0H109Q94 0 83 8T71 30Z" />
<glyph unicode="F" glyph-name="F" horiz-adv-x="497" d="M71 29V701Q71 715 82 723T109 731H461Q475 731 482 720T490 694Q490 677 483 666T461 655H155V401H311Q325 401 332 391T340 365Q340 352 333 342T311 331H155V29Q155 15 143 8T113 0T84 7T71 29Z" />
<glyph unicode="G" glyph-name="G" horiz-adv-x="548" d="M64 212V513Q64 626 122 678T277 731Q375 731 435 682T495 552Q495 529 485 520T453 511Q412 511 411 540Q398 655 279 655Q148 655 148 513V212Q148 70 279 70Q342 70 376 105T411 212V314H292Q278 314
271 324T263 349T271 373T292 384H466Q480 384 487 375T495 353V212Q495 99 436 47T279 -6T123 46T64 212Z" />
<glyph unicode="H" glyph-name="H" horiz-adv-x="581" d="M71 30V702Q71 716 83 723T113 731T142 724T155 702V414H426V702Q426 716 438 723T468 731T497 724T510 702V30Q510 16 498 8T468 0T439 8T426 30V344H155V30Q155 16 143 8T113 0T84 8T71 30Z" />
<glyph unicode="I" glyph-name="I" horiz-adv-x="226" d="M71 30V702Q71 716 83 723T113 731T142 724T155 702V30Q155 16 143 8T113 0T84 8T71 30Z" />
<glyph unicode="J" glyph-name="J" horiz-adv-x="519" d="M20 177Q20 200 30 209T62 218Q104 218 104 189Q104 136 138 103T235 70Q367 70 367 212V655H237Q223 655 216 666T208 694Q208 731 237 731H413Q428 731 439 723T451 701V212Q451 99 393 47T238 -6Q140
-6 80 44T20 177Z" />
<glyph unicode="K" glyph-name="K" horiz-adv-x="529" d="M71 30V702Q71 716 83 723T113 731T142 724T155 702V371L423 719Q432 731 448 731T480 717T496 688Q496 678 489 670L285 415L523 55Q528 47 528 40Q528 24 513 11T479 -2Q459 -2 448 15L229 344L155 251V30Q155
16 143 8T113 0T84 8T71 30Z" />
<glyph unicode="L" glyph-name="L" horiz-adv-x="468" d="M71 30V702Q71 716 83 723T113 731T142 724T155 702V76H428Q441 76 448 65T455 38T448 12T428 0H109Q94 0 83 8T71 30Z" />
<glyph unicode="M" glyph-name="M" horiz-adv-x="675" d="M71 30V690Q71 731 113 731Q153 731 180 678L337 377L495 678Q524 731 562 731Q604 731 604 690V30Q604 16 592 8T562 0T533 8T520 30V555L369 271Q357 248 336 248Q317 248 305 271L155 559V30Q155 16
143 8T113 0T84 8T71 30Z" />
<glyph unicode="N" glyph-name="N" horiz-adv-x="581" d="M71 30V702Q71 731 113 731Q134 731 148 719T177 678L426 191V702Q426 716 438 723T468 731T497 724T510 702V30Q510 16 498 8T468 0Q436 0 415 38L155 541V30Q155 16 143 8T113 0T84 8T71 30Z" />
<glyph unicode="O" glyph-name="O" horiz-adv-x="559" d="M64 212V513Q64 626 122 678T279 731T436 679T495 513V212Q495 99 436 47T279 -6T123 46T64 212ZM148 212Q148 70 279 70Q342 70 376 105T411 212V513Q411 584 377 619T279 655Q148 655 148 513V212Z" />
<glyph unicode="P" glyph-name="P" horiz-adv-x="535" d="M71 30V702Q71 714 80 722T105 731H294Q390 731 448 679T506 515V506Q506 394 447 342T290 289H155V30Q155 16 143 8T113 0T84 8T71 30ZM155 359H290Q353 359 387 394T422 501V513Q422 584 388 619T290
655H155V359Z" />
<glyph unicode="Q" glyph-name="Q" horiz-adv-x="559" d="M64 212V513Q64 626 122 678T279 731T436 679T495 513V212Q495 108 445 55T310 -4V-79Q310 -93 301 -101T280 -109T259 -101T250 -79V-4Q164 2 114 54T64 212ZM148 212Q148 90 250 74V142Q250 156 259
163T280 171T301 164T310 142V75Q411 89 411 212V513Q411 584 377 619T279 655Q148 655 148 513V212Z" />
<glyph unicode="R" glyph-name="R" horiz-adv-x="543" d="M71 30V702Q71 714 79 722T101 731H284Q384 731 445 685T506 531Q506 366 357 336L505 55Q509 48 509 41Q509 25 493 12T459 -2Q438 -2 421 31L270 324H155V30Q155 16 143 8T113 0T84 8T71 30ZM155 394H284Q422
394 422 525Q422 655 284 655H155V394Z" />
<glyph unicode="S" glyph-name="S" horiz-adv-x="502" d="M33 105Q33 121 44 136T70 151Q79 151 93 139T122 111T169 83T241 70Q306 70 343 101T380 194Q380 249 346 283T264 336T168 374T85 437T51 547Q51 599 71 637T124 695T194 724T271 733Q333 733 389 716T446
667Q446 653 436 637T410 621Q406 621 364 640T271 659Q210 659 173 634T135 555Q135 509 169 481T251 435T348 396T430 326T464 202Q464 98 404 45T245 -8Q156 -8 95 30T33 105Z" />
<glyph unicode="T" glyph-name="T" horiz-adv-x="494" d="M13 693Q13 708 21 719T43 731H450Q464 731 472 720T480 693Q480 677 472 665T450 653H289V30Q289 16 277 8T247 0T218 8T205 30V653H43Q29 653 21 664T13 693Z" />
<glyph unicode="U" glyph-name="U" horiz-adv-x="573" d="M68 212V702Q68 716 80 723T110 731T139 724T152 702V212Q152 70 286 70Q351 70 386 105T421 212V702Q421 731 463 731Q480 731 492 724T505 702V212Q505 99 445 47T286 -6T128 46T68 212Z" />
<glyph unicode="V" glyph-name="V" horiz-adv-x="549" d="M17 696Q17 711 33 721T68 731Q93 731 99 712L275 118L450 712Q457 731 480 731Q499 731 515 720T532 695Q532 694 532 692T531 688L328 23Q317 -6 275 -6T224 23L19 688Q17 694 17 696Z" />
<glyph unicode="W" glyph-name="W" horiz-adv-x="813" d="M17 697Q17 711 33 721T68 731Q93 731 99 712L268 118L363 484Q370 510 407 510Q442 510 449 484L545 118L713 712Q719 731 745 731Q763 731 779 721T795 697Q795 691 794 688L597 23Q588 -6 545 -6Q500
-6 493 23L407 353L320 23Q312 -6 269 -6T217 23L19 688Q17 694 17 697Z" />
<glyph unicode="X" glyph-name="X" horiz-adv-x="505" d="M20 39Q20 48 26 57L198 366L30 673Q23 684 23 695Q23 712 38 722T74 733Q95 733 111 701L252 435L394 701Q410 733 431 733Q451 733 466 723T482 695Q482 684 475 673L306 366L479 57Q485 48 485 39Q485
23 468 11T432 -2Q415 -2 400 26L252 299L105 26Q90 -2 73 -2Q55 -2 38 10T20 39Z" />
<glyph unicode="Y" glyph-name="Y" horiz-adv-x="545" d="M17 696Q17 711 33 721T67 731Q85 731 97 709L273 366L448 709Q460 731 478 731T512 721T528 696Q528 688 524 679L317 293Q315 290 315 283V30Q315 16 303 8T273 0T244 8T231 30V283Q231 288 228 293L21
679Q17 688 17 696Z" />
<glyph unicode="Z" glyph-name="Z" horiz-adv-x="495" d="M21 27Q21 40 29 56L352 655H64Q50 655 43 666T35 693T42 720T64 731H432Q461 731 461 706Q461 692 451 674L129 76H445Q458 76 466 65T475 38T467 12T445 0H50Q21 0 21 27Z" />
<glyph unicode="[" glyph-name="bracketleft" horiz-adv-x="314" d="M65 8V739Q65 752 76 760T103 768H267Q280 768 288 757T296 731Q296 715 288 704T267 693H149V54H267Q280 54 288 43T296 16Q296 1 288 -10T267 -21H103Q88 -21 77 -13T65 8Z" />
<glyph unicode="\" glyph-name="backslash" horiz-adv-x="351" d="M21 723Q21 736 31 745T55 754Q75 754 81 737L328 39Q330 36 330 30Q330 18 320 9T297 0Q275 0 269 20L23 712Q21 716 21 723Z" />
<glyph unicode="]" glyph-name="bracketright" horiz-adv-x="314" d="M18 16Q18 32 26 43T47 54H165V693H47Q34 693 26 704T18 731Q18 746 26 757T47 768H211Q226 768 237 760T249 739V8Q249 -5 238 -13T211 -21H47Q34 -21 26 -10T18 16Z" />
<glyph unicode="^" glyph-name="asciicircum" horiz-adv-x="273" d="M0 617Q0 636 15 643L119 699Q129 704 136 704Q145 704 153 699L257 644Q273 635 273 616Q273 605 267 597T250 588Q248 588 244 589Q242 591 240 591L136 647L32 591Q28 588 23 588Q14 588
7 597T0 617Z" />
<glyph unicode="_" glyph-name="underscore" horiz-adv-x="330" d="M-24 -36Q-24 -21 -16 -11T5 0H325Q337 0 346 -10T355 -36T346 -61T325 -71H5Q-24 -71 -24 -36Z" />
<glyph unicode="`" glyph-name="grave" horiz-adv-x="168" d="M0 670Q0 683 8 693T28 704Q32 704 38 702L155 640Q168 634 168 618Q168 605 159 595T138 584Q135 584 127 588L14 646Q0 653 0 670Z" />
<glyph unicode="a" glyph-name="a" horiz-adv-x="448" d="M28 125Q28 203 88 233T262 264H310V285Q310 335 283 372T200 409Q158 409 126 395T91 380Q77 380 69 393T60 422Q60 445 105 462T202 480Q300 480 346 425T393 286V30Q393 17 382 9T352 0Q336 0 325 8T314
30V70Q246 -8 163 -8Q103 -8 66 26T28 125ZM112 134Q112 97 133 78T189 59Q231 59 270 92T310 161V213H275Q246 213 225 212T182 206T145 193T121 170T112 134Z" />
<glyph unicode="b" glyph-name="b" horiz-adv-x="494" d="M60 30V731Q60 744 71 752T101 760T131 752T143 731V404Q161 436 195 458T274 480Q347 480 400 424T453 288V186Q453 110 400 51T277 -8Q232 -8 194 15T139 70V30Q139 18 128 9T101 0Q84 0 72 9T60 30ZM143
159Q143 134 178 101T257 67Q302 67 336 103T370 186V288Q370 333 336 369T256 405Q211 405 177 373T143 288V159Z" />
<glyph unicode="c" glyph-name="c" horiz-adv-x="417" d="M42 186V286Q42 372 92 426T241 480Q303 480 345 458T388 411Q388 397 378 384T353 370Q349 370 319 387T247 405Q187 405 156 374T125 286V186Q125 67 248 67Q290 67 321 85T357 103Q373 103 383 90T394
63Q394 38 350 15T242 -8Q143 -8 93 45T42 186Z" />
<glyph unicode="d" glyph-name="d" horiz-adv-x="494" d="M41 186V288Q41 367 94 423T220 480Q265 480 299 458T351 404V731Q351 744 363 752T393 760T422 752T434 731V30Q434 18 422 9T393 0Q378 0 367 9T355 30V70Q338 38 300 15T217 -8Q147 -8 94 51T41 186ZM124
186Q124 140 158 104T237 67Q281 67 316 100T351 159V288Q351 340 317 372T238 405Q192 405 158 369T124 288V186Z" />
<glyph unicode="e" glyph-name="e" horiz-adv-x="465" d="M41 186V291Q41 368 99 424T240 480Q318 480 375 428T432 296Q432 267 425 250T404 225T377 215T343 213H124V183Q124 128 163 95T266 62Q299 62 323 72T363 91T387 101Q401 101 411 89T421 63Q421 40
376 16T263 -8Q165 -8 103 45T41 186ZM124 269H309Q335 269 344 275T353 301Q353 346 320 380T239 414Q192 414 158 383T124 305V269Z" />
<glyph unicode="f" glyph-name="f" horiz-adv-x="315" d="M60 29V573Q60 651 112 705T237 760H272Q288 760 297 749T306 723T297 698T272 687H251Q205 687 175 656T143 580V474H280Q292 474 299 464T306 441T299 419T280 409H143V29Q143 17 131 9T100 0Q83 0 72 8T60 29Z" />
<glyph unicode="g" glyph-name="g" d="M22 -94Q22 -21 103 15Q52 34 52 82Q52 128 102 156Q45 202 45 282V315Q45 388 94 434T223 480Q291 480 340 441Q370 506 408 506Q424 506 434 497T444 475Q444 460 427 452Q393 443 373 410Q404 373 404 315V282Q404 210
353 163T223 116Q182 116 149 131Q124 116 124 97T147 68T204 55T278 45T352 27T409 -12T432 -83Q432 -154 376 -191T229 -229T81 -193T22 -94ZM101 -85Q101 -124 135 -147T228 -171Q284 -171 317 -148T351 -85Q351 -69 346 -57T328 -37T304 -24T273 -15T242 -10T209
-6T180 -3Q101 -29 101 -85ZM126 283Q126 235 152 204T225 173Q269 173 296 203T323 282V315Q323 361 296 392T224 423Q178 423 152 393T126 315V283Z" />
<glyph unicode="h" glyph-name="h" horiz-adv-x="504" d="M60 30V731Q60 744 71 752T101 760T131 752T143 731V404Q160 436 193 458T273 480Q344 480 396 424T449 288V30Q449 16 437 8T407 0Q391 0 379 8T366 30V288Q366 333 332 369T252 405Q209 405 176 373T143
288V30Q143 19 131 10T101 0T72 9T60 30Z" />
<glyph unicode="i" glyph-name="i" horiz-adv-x="201" d="M48 633T48 652T63 685T100 699Q121 699 136 685T151 652T136 619T100 604T64 618ZM59 30V445Q59 458 71 466T100 474Q118 474 130 466T142 445V30Q142 19 130 10T100 0T71 9T59 30Z" />
<glyph unicode="j" glyph-name="j" horiz-adv-x="203" d="M-37 -193Q-37 -177 -27 -167T-3 -156Q36 -156 48 -127T60 -40V445Q60 458 71 466T101 474T131 466T143 445V-40Q143 -127 109 -178T6 -229Q-37 -229 -37 -193ZM49 633T49 652T64 685T101 699Q122 699
137 685T152 652T137 619T101 604T65 618Z" />
<glyph unicode="k" glyph-name="k" horiz-adv-x="467" d="M60 30V731Q60 744 71 752T101 760T131 752T143 731V263L371 469Q380 476 389 476Q404 476 417 464T431 437Q431 425 422 417L283 294L449 53Q454 45 454 38Q454 23 439 10T408 -4Q394 -4 385 9L226 242L143
168V30Q143 19 131 10T101 0T72 9T60 30Z" />
<glyph unicode="l" glyph-name="l" horiz-adv-x="219" d="M68 30V731Q68 744 79 752T109 760T139 752T151 731V30Q151 19 139 10T109 0T80 9T68 30Z" />
<glyph unicode="m" glyph-name="m" horiz-adv-x="786" d="M59 30V445Q59 458 70 466T100 474Q116 474 127 466T138 445V404Q156 437 190 458T271 480T353 453T408 380Q433 429 474 454T560 480Q630 480 680 428T731 288V30Q731 19 719 10T689 0Q673 0 661 9T648
30V288Q648 342 617 373T543 405T469 373T436 291V29Q436 15 424 8T394 0Q378 0 366 7T353 29V290Q353 340 323 372T249 405T174 373T142 288V30Q142 19 130 10T100 0T71 9T59 30Z" />
<glyph unicode="n" glyph-name="n" horiz-adv-x="503" d="M59 30V445Q59 458 70 466T100 474Q115 474 126 466T138 445V404Q154 436 189 458T272 480Q343 480 395 424T448 288V30Q448 16 436 8T406 0Q390 0 378 8T365 30V288Q365 333 331 369T251 405Q208 405
175 373T142 288V30Q142 19 129 10T100 0Q83 0 71 9T59 30Z" />
<glyph unicode="o" glyph-name="o" horiz-adv-x="477" d="M41 186V288Q41 365 99 422T238 480T377 423T436 288V186Q436 110 377 51T238 -8T100 50T41 186ZM124 186Q124 139 158 103T238 67Q285 67 319 103T353 186V288Q353 333 319 369T238 405T158 369T124 288V186Z" />
<glyph unicode="p" glyph-name="p" horiz-adv-x="494" d="M60 -199V445Q60 458 71 466T100 474T128 466T139 445V404Q157 436 192 458T273 480Q348 480 400 424T453 288V186Q453 110 400 51T277 -8Q233 -8 197 14T143 70V-199Q143 -210 131 -219T101 -229T72 -220T60
-199ZM143 159Q143 134 177 101T256 67Q301 67 335 103T370 186V288Q370 333 336 369T254 405Q210 405 177 373T143 288V159Z" />
<glyph unicode="q" glyph-name="q" horiz-adv-x="494" d="M41 186V288Q41 367 93 423T221 480Q267 480 302 458T355 404V445Q355 458 366 466T394 474T422 466T434 445V-199Q434 -211 422 -220T393 -229T364 -220T351 -199V70Q334 37 298 15T217 -8Q147 -8 94
51T41 186ZM124 186Q124 140 158 104T238 67Q282 67 316 100T351 159V288Q351 340 318 372T240 405Q193 405 159 369T124 288V186Z" />
<glyph unicode="r" glyph-name="r" horiz-adv-x="344" d="M59 30V445Q59 458 70 466T100 474Q116 474 127 466T138 445V398Q156 432 191 456T269 480H303Q316 480 325 469T335 442T326 416T303 405H269Q218 405 180 364T142 258V30Q142 19 130 10T100 0T71 9T59 30Z" />
<glyph unicode="s" glyph-name="s" horiz-adv-x="392" d="M30 68Q30 81 38 93T59 106Q67 106 82 94T125 71T191 59Q241 59 263 77T286 122Q286 155 261 174T200 204T128 226T67 266T42 340Q42 397 82 438T206 480Q259 480 303 464T347 426Q347 414 338 399T314
384Q310 384 276 398T207 413Q161 413 139 392T116 343Q116 315 141 299T202 274T275 252T336 208T361 126Q361 64 317 28T194 -8Q126 -8 78 16T30 68Z" />
<glyph unicode="t" glyph-name="t" horiz-adv-x="310" d="M57 151V666Q57 678 70 686T98 695Q114 695 127 687T140 666V474H266Q277 474 284 464T291 441T284 419T266 409H140V151Q140 108 158 91T223 73H254Q271 73 280 63T290 37T280 11T254 0H223Q57 0 57 151Z" />
<glyph unicode="u" glyph-name="u" horiz-adv-x="505" d="M55 184V444Q55 456 67 465T97 474Q113 474 125 465T138 444V184Q138 139 172 103T253 67Q299 67 333 102T367 184V445Q367 456 379 465T409 474Q427 474 438 466T450 445V184Q450 107 392 50T253 -8Q172
-8 114 49T55 184Z" />
<glyph unicode="v" glyph-name="v" horiz-adv-x="437" d="M12 440Q12 454 29 465T65 476Q86 476 92 460L219 120L344 456Q352 476 371 476Q387 476 406 465T425 440Q425 432 421 424L257 9Q249 -9 219 -9Q188 -9 180 9L16 424Q12 436 12 440Z" />
<glyph unicode="w" glyph-name="w" horiz-adv-x="675" d="M14 440Q14 455 30 465T65 476Q86 476 92 460L213 124L307 427Q314 447 338 447Q363 447 370 427L462 121L584 460Q589 476 610 476Q628 476 645 466T662 440Q662 432 658 424L502 9Q495 -9 469 -9Q442
-9 435 9L338 303L243 12Q236 -9 207 -9Q181 -9 173 12L18 424Q14 436 14 440Z" />
<glyph unicode="x" glyph-name="x" horiz-adv-x="426" d="M24 33Q24 42 29 50L158 240L34 422Q28 430 28 438Q28 453 46 466T81 480Q95 480 103 468L213 296L325 468Q332 480 347 480Q363 480 381 466T399 438Q399 430 394 422L268 240L398 50Q403 43 403 33Q403
20 386 6T352 -8Q336 -8 329 4L213 181L98 4Q90 -8 75 -8T42 5T24 33Z" />
<glyph unicode="y" glyph-name="y" horiz-adv-x="437" d="M12 440Q12 456 30 468T66 480Q87 480 93 463L225 115L344 463Q351 480 370 480Q387 480 405 468T424 439Q424 434 421 429L269 22L250 -28Q245 -42 230 -76T205 -125T177 -164T142 -200T102 -220T52 -229Q13
-229 13 -192Q13 -156 37 -156Q82 -156 124 -106T182 24L16 429Q12 435 12 440Z" />
<glyph unicode="z" glyph-name="z" horiz-adv-x="411" d="M23 31Q23 47 36 64L267 403H60Q49 403 41 413T32 438Q32 453 40 463T60 474H346Q358 474 367 465T376 442Q376 425 364 410L132 71H361Q372 71 380 61T389 35T381 10T361 0H54Q39 0 31 9T23 31Z" />
<glyph unicode="{" glyph-name="braceleft" horiz-adv-x="325" d="M28 369T28 385T37 408T58 417T78 424T88 441Q88 449 79 516T69 601Q69 667 127 717T262 768Q285 768 296 757T307 731Q307 717 299 706T278 695Q229 695 191 665T153 591Q153 576 162 510T172
433Q172 416 160 402T136 384Q147 381 159 368T172 336Q172 325 163 242T153 142Q153 96 194 75T278 53Q293 53 300 42T307 17Q307 -20 261 -20Q183 -20 126 24T69 135Q69 154 78 237T88 329Q88 341 79 346T58 352T38 361Z" />
<glyph unicode="|" glyph-name="bar" horiz-adv-x="213" d="M65 8V739Q65 752 77 760T107 768Q124 768 136 760T149 739V8Q149 -3 136 -12T107 -21Q89 -21 77 -13T65 8Z" />
<glyph unicode="}" glyph-name="braceright" horiz-adv-x="325" d="M18 17Q18 53 47 53Q90 53 131 74T172 142Q172 158 163 241T153 336Q153 354 165 367T189 384Q178 387 166 401T153 433Q153 443 162 509T172 591Q172 635 134 665T47 695Q34 695 26 706T18 731Q18
746 29 757T63 768Q139 768 197 718T256 601Q256 584 247 517T237 441Q237 429 246 424T267 418T287 409T297 385T288 361T267 352T247 346T237 329Q237 320 246 237T256 135Q256 68 199 24T64 -20Q18 -20 18 17Z" />
<glyph unicode="~" glyph-name="asciitilde" horiz-adv-x="402" d="M41 244Q41 273 70 289T128 305Q155 305 196 289T263 272Q288 272 309 285T336 299Q347 299 353 290T360 271Q360 240 332 226T276 211Q246 211 206 227T140 244Q115 244 93 230T64 215Q53 215
47 224T41 244Z" />
<glyph unicode="&#xa0;" glyph-name="uni00A0" horiz-adv-x="200" />
<glyph unicode="&#xa1;" glyph-name="exclamdown" horiz-adv-x="206" d="M50 689Q50 710 65 725T102 741T139 726T154 689Q154 667 139 652T102 636T65 651T50 689ZM58 37Q58 115 64 285T70 533Q70 546 80 553T102 560Q116 560 125 553T135 533Q135 455 141 285T148
37Q148 17 135 6T102 -6Q83 -6 71 5T58 37Z" />
<glyph unicode="&#xa2;" glyph-name="cent" horiz-adv-x="418" d="M32 358V378Q32 455 72 507T194 569V668Q194 679 202 686T222 694Q234 694 242 687T251 668V570Q305 566 343 547T381 504Q381 489 371 477T346 464Q342 464 315 480T251 498V239Q287 241 314
257T346 273Q362 273 373 261T384 234Q384 210 344 190T251 166V67Q251 57 242 49T222 40T203 48T194 67V167Q114 176 73 228T32 358ZM107 358Q107 259 194 240V496Q107 477 107 378V358Z" />
<glyph unicode="&#xa3;" glyph-name="sterling" horiz-adv-x="502" d="M23 22T23 38T30 65T52 76H109L150 367H79Q67 367 61 376T54 399Q54 413 61 422T79 432H159L179 572Q191 654 258 711T409 768H433Q447 768 456 757T465 730Q465 716 456 705T433 693H404Q348
693 309 658T262 572L242 432H383Q394 432 401 422T408 399T401 377T383 367H233L191 76H437Q450 76 457 65T465 38T458 12T437 0H52Q38 0 31 11Z" />
<glyph unicode="&#xa4;" glyph-name="currency" horiz-adv-x="470" d="M58 324Q58 331 63 336L94 366Q59 414 59 472Q59 531 94 577L68 603Q62 609 62 616Q62 625 69 632T85 639Q91 639 98 634L123 609Q171 652 236 652Q296 652 346 612L372 638Q379 643 385 643Q394
643 401 636T408 620Q408 614 403 607L375 581Q414 534 414 472Q414 413 375 363L403 336Q408 329 408 324Q408 316 401 309T385 301Q377 301 373 306L346 332Q296 290 236 290Q174 290 123 334L93 306Q88 301 81 301Q72 301 65 308T58 324ZM114 472Q114 422 150
384T236 345T322 383T359 472Q359 520 323 558T236 597Q186 597 150 559T114 472Z" />
<glyph unicode="&#xa5;" glyph-name="yen" horiz-adv-x="520" d="M23 698Q23 711 38 722T71 734T98 713L258 405L423 713Q434 734 450 734Q467 734 482 723T497 698Q497 690 495 687L318 374H411Q422 374 431 364T441 341T432 319T411 310H299V239H411Q423 239
432 230T441 207Q441 193 432 184T411 175H299V29Q299 16 287 8T258 0T229 8T216 29V175H109Q96 175 88 183T80 206T88 229T109 239H216V310H109Q96 310 88 318T80 341T88 364T109 374H197L26 687Q23 692 23 698Z" />
<glyph unicode="&#xa6;" glyph-name="brokenbar" horiz-adv-x="213" d="M65 8V274Q65 287 76 295T106 303T136 295T148 274V8Q148 -3 136 -12T106 -21Q88 -21 77 -13T65 8ZM65 473V739Q65 752 76 760T106 768T136 760T148 739V473Q148 462 136 453T106 444Q88
444 77 452T65 473Z" />
<glyph unicode="&#xa7;" glyph-name="section" horiz-adv-x="469" d="M46 99Q46 135 83 135T120 108Q120 70 143 38T225 5Q280 5 309 33T338 112Q338 154 309 179T239 218T157 251T86 311T57 416V535Q57 592 73 632T118 693T175 722T236 731Q316 731 359 685T403
569Q403 532 369 532Q331 532 331 566Q331 601 310 630T239 660Q195 660 165 633T135 549Q135 514 156 490T209 454T278 427T347 393T400 337T422 245V127Q422 26 368 -20T232 -67Q147 -67 97 -18T46 99ZM129 404Q129 367 145 342T188 304T243 281T302 257T350
225V252Q350 297 324 326T265 365T190 392T129 430V404Z" />
<glyph unicode="&#xa8;" glyph-name="dieresis" horiz-adv-x="211" d="M0 613T0 630T12 659T41 671T69 659T81 630T69 601T41 588Q24 588 12 600ZM131 613T131 630T142 659T171 671T199 659T211 630T200 601T171 588T143 600Z" />
<glyph unicode="&#xa9;" glyph-name="copyright" horiz-adv-x="710" d="M48 358Q48 438 76 502T151 605T250 664T358 685T465 665T562 606T634 504T662 362Q662 282 634 218T559 115T460 56T352 35T245 55T148 114T76 216T48 358ZM97 358Q97 238 167 161T352 84Q467
84 540 161T613 362Q613 482 543 559T358 636Q243 636 170 559T97 358ZM247 291V443Q247 506 277 535T356 565Q406 565 436 538T467 466Q467 449 461 443T440 437Q413 437 413 456Q410 515 358 515Q301 515 301 443V291Q301 218 358 218Q375 218 386 223T402 241T409
260T413 281Q414 300 440 300Q455 300 461 294T467 270Q467 225 436 197T355 169Q307 169 277 198T247 291Z" />
<glyph unicode="&#xaa;" glyph-name="ordfeminine" horiz-adv-x="319" d="M32 517Q32 568 70 588T183 608H212V620Q212 650 196 672T146 694Q118 694 97 685T74 675Q64 675 58 684T52 706Q52 721 83 733T147 746Q211 746 242 710T273 620V458Q273 449 265 443T243
436Q232 436 224 442T215 458V481Q173 432 114 432Q78 432 55 454T32 517ZM94 524Q94 502 106 491T139 479Q165 479 188 500T212 544V572H186Q94 572 94 524Z" />
<glyph unicode="&#xab;" glyph-name="guillemotleft" horiz-adv-x="434" d="M32 269T32 277T46 311L130 468Q138 481 157 481T191 467T206 439Q206 434 203 428L122 277L203 126Q206 122 206 115Q206 101 191 88T156 74T130 87L46 243Q32 269 32 277ZM220 277Q220
285 234 311L318 468Q324 481 345 481Q364 481 379 467T394 439Q394 434 391 428L310 277L391 126Q394 122 394 115Q394 101 379 88T344 74T318 87L234 243Q220 268 220 277Z" />
<glyph unicode="&#xac;" glyph-name="logicalnot" horiz-adv-x="486" d="M44 240Q44 255 52 265T73 276H395Q407 276 416 266T425 240V92Q425 81 413 72T384 63Q366 63 354 71T342 92V205H73Q44 205 44 240Z" />
<glyph unicode="&#xad;" glyph-name="uni00AD" horiz-adv-x="473" d="M47 240Q47 255 55 265T76 276H396Q408 276 417 266T426 240T417 215T396 205H76Q47 205 47 240Z" />
<glyph unicode="&#xae;" glyph-name="registered" horiz-adv-x="710" d="M48 358Q48 438 76 502T151 605T250 664T358 685T465 665T562 606T634 504T662 362Q662 282 634 218T559 115T460 56T352 35T245 55T148 114T76 216T48 358ZM97 358Q97 238 167 161T352
84Q467 84 540 161T613 362Q613 482 543 559T358 636Q243 636 170 559T97 358ZM257 193V539Q257 546 262 551T275 557H365Q475 557 475 450Q475 365 408 347L473 208Q474 205 474 201Q474 191 465 182T445 173Q435 173 426 191L357 339H309V193Q309 174 284 174Q257
174 257 193ZM309 383H365Q423 383 423 445Q423 510 365 510H309V383Z" />
<glyph unicode="&#xaf;" glyph-name="overscore" horiz-adv-x="271" d="M0 645T0 658T8 680T29 689H241Q252 689 261 680T271 658Q271 645 262 637T241 628H29Q16 628 8 636Z" />
<glyph unicode="&#xb0;" glyph-name="degree" horiz-adv-x="413" d="M29 516T29 588T81 714T206 768T331 715T384 588Q384 516 331 461T206 406T82 461ZM84 588Q84 538 120 500T206 461T292 499T329 588Q329 636 293 674T206 713Q156 713 120 675T84 588Z" />
<glyph unicode="&#xb1;" glyph-name="plusminus" horiz-adv-x="470" d="M46 85Q46 100 54 110T75 121H395Q407 121 416 111T425 85T416 60T395 50H75Q62 50 54 59T46 85ZM46 357Q46 372 54 382T75 393H200V513Q200 525 210 534T236 543T261 534T271 513V393H395Q407
393 416 383T425 357T416 332T395 322H271V201Q271 188 262 180T236 172Q221 172 211 180T200 201V322H75Q62 322 54 331T46 357Z" />
<glyph unicode="&#xb2;" glyph-name="uni00B2" horiz-adv-x="310" d="M30 368V418Q30 446 59 475T124 524T189 571T219 624Q219 644 203 660T156 676Q98 676 98 626Q98 617 89 611T66 604Q39 604 39 636Q39 678 73 704T156 731Q208 731 243 702T279 626Q279 595
260 568T214 522T159 487T112 453T93 421V401H262Q270 401 276 394T282 375T276 356T262 348H58Q48 348 39 354T30 368Z" />
<glyph unicode="&#xb3;" glyph-name="uni00B3" horiz-adv-x="317" d="M26 438Q26 452 32 457T54 462Q72 462 79 458T86 441Q86 423 103 411T154 398Q190 398 207 412T224 460V469Q224 524 154 524Q134 524 134 547Q134 572 154 572Q183 572 198 583T213 627Q213
678 156 678Q95 678 95 638Q95 615 67 615Q47 615 42 620T36 641Q36 675 64 703T156 731Q272 731 272 637Q272 570 226 550Q284 530 284 469V460Q284 400 248 373T153 345Q91 345 59 373T26 438Z" />
<glyph unicode="&#xb4;" glyph-name="acute" horiz-adv-x="168" d="M0 618Q0 633 13 640L130 702Q136 704 140 704Q152 704 160 694T168 670Q168 653 154 646L41 588Q33 584 30 584Q18 584 9 594T0 618Z" />
<glyph unicode="&#xb5;" glyph-name="uni00B5" horiz-adv-x="497" d="M66 -200V444Q66 456 78 465T107 474Q123 474 136 465T149 444V170Q149 137 185 102T264 67Q308 67 341 103T374 184V444Q374 456 386 465T415 474Q433 474 445 466T457 444V184Q457 106 401
49T263 -8Q186 -8 141 50V-200Q141 -211 131 -220T106 -229Q89 -229 78 -221T66 -200Z" />
<glyph unicode="&#xb6;" glyph-name="paragraph" horiz-adv-x="531" d="M29 513V525Q29 632 82 681T225 731H430Q442 731 451 723T460 701V29Q460 15 451 8T430 0T409 7T400 29V683H321V30Q321 16 312 8T291 0T270 8T261 30V306H225Q136 306 83 356T29 513Z" />
<glyph unicode="&#xb7;" glyph-name="middot" horiz-adv-x="188" d="M40 280T40 300T56 335T95 350Q117 350 132 335T148 300T133 265T95 250Q72 250 56 265Z" />
<glyph unicode="&#xb8;" glyph-name="cedilla" horiz-adv-x="173" d="M0 -185Q0 -178 5 -168T18 -157Q20 -157 37 -164T74 -171Q126 -171 126 -134Q126 -98 67 -93L24 -90L50 9H95L77 -58Q125 -59 149 -80T173 -131Q173 -163 150 -187T80 -212Q53 -212 27 -205T0 -185Z" />
<glyph unicode="&#xb9;" glyph-name="uni00B9" horiz-adv-x="175" d="M14 653Q14 668 26 675L86 726Q92 732 102 732T120 727T128 712V368Q128 348 98 348T68 368V654L48 634Q42 629 35 629Q26 629 20 636T14 653Z" />
<glyph unicode="&#xba;" glyph-name="ordmasculine" horiz-adv-x="331" d="M35 558V620Q35 671 73 708T165 746Q218 746 257 709T296 620V558Q296 508 257 470T165 431T74 469T35 558ZM97 558Q97 530 117 508T165 486T214 508T235 558V620Q235 648 215 669T165
690Q137 690 117 669T97 620V558Z" />
<glyph unicode="&#xbb;" glyph-name="guillemotright" horiz-adv-x="434" d="M40 115Q40 122 43 126L124 277L43 428Q40 434 40 439Q40 453 55 467T89 481T116 468L200 311Q214 285 214 277T200 243L116 87Q109 74 90 74T56 87T40 115ZM227 115Q227 122 230 126L312
277L230 428Q227 434 227 439Q227 453 242 467T276 481Q296 481 303 468L388 311Q402 285 402 277T388 243L303 87Q296 74 277 74T243 87T227 115Z" />
<glyph unicode="&#xbc;" glyph-name="onequarter" horiz-adv-x="619" d="M27 653Q27 668 39 675L99 726Q105 732 115 732T133 727T141 712V368Q141 348 111 348T81 368V654L61 634Q55 629 48 629Q39 629 33 636T27 653ZM71 0Q71 7 74 13L449 755Q456 770 474 770Q487
770 497 761T508 737Q508 730 505 723L131 -14Q124 -30 103 -30Q90 -30 81 -21T71 0ZM325 107Q325 113 328 119L467 367Q477 383 494 383Q504 383 514 377T524 360Q524 357 522 351L402 141H488V207Q488 226 517 226Q548 226 548 207V141H577Q597 141 597 113Q597
102 591 94T577 85H548V20Q548 0 517 0Q488 0 488 20V85H346Q325 85 325 107Z" />
<glyph unicode="&#xbd;" glyph-name="onehalf" horiz-adv-x="625" d="M26 653Q26 668 38 675L98 726Q104 732 114 732T132 727T140 712V368Q140 348 110 348T80 368V654L60 634Q54 629 47 629Q38 629 32 636T26 653ZM54 0Q54 7 57 13L432 755Q440 770 457 770Q470
770 480 761T491 737Q491 730 488 723L114 -14Q107 -30 86 -30Q73 -30 64 -21T54 0ZM344 20V71Q344 99 373 127T438 176T503 223T533 276Q533 296 517 312T470 328Q412 328 412 278Q412 269 403 263T380 256Q353 256 353 288Q353 331 387 357T470 383Q522 383 557
354T593 278Q593 247 574 220T528 174T473 139T426 105T407 73V53H576Q584 53 590 46T596 27T590 8T576 0H372Q362 0 353 6T344 20Z" />
<glyph unicode="&#xbe;" glyph-name="threequarters" horiz-adv-x="751" d="M30 438Q30 452 36 457T58 462Q76 462 83 458T90 441Q90 423 107 411T158 398Q194 398 211 412T228 460V469Q228 524 158 524Q138 524 138 547Q138 572 158 572Q187 572 202 583T217
627Q217 678 160 678Q99 678 99 638Q99 615 71 615Q51 615 46 620T40 641Q40 675 68 703T160 731Q276 731 276 637Q276 570 230 550Q288 530 288 469V460Q288 400 252 373T157 345Q95 345 63 373T30 438ZM197 0Q197 7 200 13L575 755Q582 770 600 770Q613 770 623
761T634 737Q634 730 631 723L257 -14Q250 -30 229 -30Q216 -30 207 -21T197 0ZM457 107Q457 113 460 119L599 367Q609 383 626 383Q636 383 646 377T656 360Q656 357 654 351L534 141H620V207Q620 226 649 226Q680 226 680 207V141H709Q729 141 729 113Q729 102
723 94T709 85H680V20Q680 0 649 0Q620 0 620 20V85H478Q457 85 457 107Z" />
<glyph unicode="&#xbf;" glyph-name="questiondown" horiz-adv-x="408" d="M30 169Q30 210 46 248T80 307T125 354L159 387Q185 412 191 442T198 534Q198 560 232 560Q264 560 264 523Q264 451 252 415T216 354Q208 345 183 322T143 284T115 239T101 177Q101 122
134 92T227 61Q258 61 280 69T312 88T332 106T353 115Q366 115 376 106T386 82Q386 52 339 23T224 -6Q133 -6 82 43T30 169ZM179 689Q179 710 194 725T231 741T268 726T283 689Q283 667 268 652T231 636Q210 636 195 651T179 689Z" />
<glyph unicode="&#xc0;" glyph-name="Agrave" horiz-adv-x="550" d="M17 35Q17 37 19 43L223 708Q232 737 275 737T327 708L531 43Q531 41 531 39T532 36Q532 22 516 11T480 0Q456 0 450 19L406 168H143L99 19Q93 0 68 0Q50 0 34 10T17 35ZM162 237H386L275 613L162
237ZM184 921Q184 934 192 944T212 955Q216 955 222 953L339 891Q352 884 352 869Q352 856 343 846T322 835Q319 835 311 839L198 897Q184 904 184 921Z" />
<glyph unicode="&#xc1;" glyph-name="Aacute" horiz-adv-x="550" d="M17 35Q17 37 19 43L223 708Q232 737 275 737T327 708L531 43Q531 41 531 39T532 36Q532 22 516 11T480 0Q456 0 450 19L406 168H143L99 19Q93 0 68 0Q50 0 34 10T17 35ZM162 237H386L275 613L162
237ZM206 869Q206 884 219 891L336 953Q342 955 346 955Q358 955 366 945T374 921Q374 904 360 897L247 839Q239 835 236 835Q224 835 215 845T206 869Z" />
<glyph unicode="&#xc2;" glyph-name="Acircumflex" horiz-adv-x="550" d="M17 35Q17 37 19 43L223 708Q232 737 275 737T327 708L531 43Q531 41 531 39T532 36Q532 22 516 11T480 0Q456 0 450 19L406 168H143L99 19Q93 0 68 0Q50 0 34 10T17 35ZM138 868Q138 886
153 894L257 950Q267 955 274 955Q283 955 291 950L395 895Q411 886 411 867Q411 856 405 848T388 839Q386 839 382 840Q380 842 378 842L274 898L170 842Q166 839 161 839Q152 839 145 848T138 868ZM162 237H386L275 613L162 237Z" />
<glyph unicode="&#xc3;" glyph-name="Atilde" horiz-adv-x="550" d="M17 35Q17 37 19 43L223 708Q232 737 275 737T327 708L531 43Q531 41 531 39T532 36Q532 22 516 11T480 0Q456 0 450 19L406 168H143L99 19Q93 0 68 0Q50 0 34 10T17 35ZM115 887Q115 916 144
932T202 948Q229 948 270 932T337 915Q362 915 383 928T410 942Q421 942 427 933T434 914Q434 883 406 869T350 854Q320 854 280 870T214 887Q189 887 167 873T138 858Q127 858 121 867T115 887ZM162 237H386L275 613L162 237Z" />
<glyph unicode="&#xc4;" glyph-name="Adieresis" horiz-adv-x="550" d="M17 35Q17 37 19 43L223 708Q232 737 275 737T327 708L531 43Q531 41 531 39T532 36Q532 22 516 11T480 0Q456 0 450 19L406 168H143L99 19Q93 0 68 0Q50 0 34 10T17 35ZM162 237H386L275
613L162 237ZM169 864T169 881T181 910T210 922T238 910T250 881T238 852T210 839Q193 839 181 851ZM300 864T300 881T311 910T340 922T368 910T380 881T369 852T340 839T312 851Z" />
<glyph unicode="&#xc5;" glyph-name="Aring" horiz-adv-x="550" d="M17 35Q17 37 19 43L223 708Q232 737 275 737T327 708L531 43Q531 41 531 39T532 36Q532 22 516 11T480 0Q456 0 450 19L406 168H143L99 19Q93 0 68 0Q50 0 34 10T17 35ZM162 237H386L275 613L162
237ZM180 924Q180 962 207 990T274 1019Q311 1019 339 990T368 924Q368 886 340 857T274 827Q235 827 208 856T180 924ZM218 924Q218 902 234 884T274 865Q296 865 312 883T329 924Q329 945 313 962T274 979Q251 979 235 962T218 924Z" />
<glyph unicode="&#xc6;" glyph-name="AE" horiz-adv-x="735" d="M68 35V513Q68 626 126 678T280 731H684Q698 731 705 720T713 694Q713 677 706 666T684 655H451V401H591Q604 401 612 391T620 365Q620 352 613 342T591 331H451V76H684Q698 76 705 65T713 37Q713
22 706 11T684 0H405Q390 0 379 8T367 30V331H148V35Q148 17 140 9T106 0Q68 0 68 35ZM148 401H367V655H280Q217 655 183 620T148 513V401Z" />
<glyph unicode="&#xc7;" glyph-name="Ccedilla" horiz-adv-x="531" d="M64 212V513Q64 625 123 678T279 731Q377 731 436 682T495 557Q495 530 485 521T453 511Q413 511 411 540Q405 655 281 655Q148 655 148 513V212Q148 70 284 70Q323 70 349 81T387 113T404
149T411 189Q414 218 453 218Q475 218 485 208T495 171Q495 102 446 54T313 -4L299 -58Q347 -59 371 -80T395 -131Q395 -163 372 -187T302 -212Q275 -212 249 -205T222 -185Q222 -178 227 -168T240 -157Q242 -157 259 -164T296 -171Q348 -171 348 -134Q348 -98
289 -93L246 -90L268 -6Q176 -3 120 49T64 212Z" />
<glyph unicode="&#xc8;" glyph-name="Egrave" horiz-adv-x="514" d="M71 30V701Q71 715 82 723T109 731H465Q479 731 486 720T494 694Q494 678 486 667T465 655H155V401H311Q324 401 332 391T340 365Q340 352 333 342T311 331H155V76H465Q478 76 486 65T494 37Q494
22 487 11T465 0H109Q94 0 83 8T71 30ZM196 921Q196 934 204 944T224 955Q228 955 234 953L351 891Q364 884 364 869Q364 856 355 846T334 835Q331 835 323 839L210 897Q196 904 196 921Z" />
<glyph unicode="&#xc9;" glyph-name="Eacute" horiz-adv-x="514" d="M71 30V701Q71 715 82 723T109 731H465Q479 731 486 720T494 694Q494 678 486 667T465 655H155V401H311Q324 401 332 391T340 365Q340 352 333 342T311 331H155V76H465Q478 76 486 65T494 37Q494
22 487 11T465 0H109Q94 0 83 8T71 30ZM208 869Q208 884 221 891L338 953Q344 955 348 955Q360 955 368 945T376 921Q376 904 362 897L249 839Q241 835 238 835Q226 835 217 845T208 869Z" />
<glyph unicode="&#xca;" glyph-name="Ecircumflex" horiz-adv-x="514" d="M71 30V701Q71 715 82 723T109 731H465Q479 731 486 720T494 694Q494 678 486 667T465 655H155V401H311Q324 401 332 391T340 365Q340 352 333 342T311 331H155V76H465Q478 76 486 65T494
37Q494 22 487 11T465 0H109Q94 0 83 8T71 30ZM149 868Q149 886 164 894L268 950Q278 955 285 955Q294 955 302 950L406 895Q422 886 422 867Q422 856 415 848T399 839Q397 839 393 840Q391 842 389 842L285 898L181 842Q176 839 172 839Q163 839 156 848T149 868Z"
/>
<glyph unicode="&#xcb;" glyph-name="Edieresis" horiz-adv-x="514" d="M71 30V701Q71 715 82 723T109 731H465Q479 731 486 720T494 694Q494 678 486 667T465 655H155V401H311Q324 401 332 391T340 365Q340 352 333 342T311 331H155V76H465Q478 76 486 65T494
37Q494 22 487 11T465 0H109Q94 0 83 8T71 30ZM177 864T177 881T189 910T218 922T246 910T258 881T246 852T218 839Q201 839 189 851ZM308 864T308 881T319 910T348 922T376 910T388 881T377 852T348 839T320 851Z" />
<glyph unicode="&#xcc;" glyph-name="Igrave" horiz-adv-x="226" d="M25 921Q25 934 33 944T53 955Q57 955 63 953L180 891Q193 884 193 869Q193 856 184 846T163 835Q160 835 152 839L39 897Q25 904 25 921ZM71 30V702Q71 716 83 723T113 731T142 724T155 702V30Q155
16 143 8T113 0T84 8T71 30Z" />
<glyph unicode="&#xcd;" glyph-name="Iacute" horiz-adv-x="226" d="M32 869Q32 884 45 891L162 953Q168 955 172 955Q184 955 192 945T200 921Q200 904 186 897L73 839Q65 835 62 835Q50 835 41 845T32 869ZM71 30V702Q71 716 83 723T113 731T142 724T155 702V30Q155
16 143 8T113 0T84 8T71 30Z" />
<glyph unicode="&#xce;" glyph-name="Icircumflex" horiz-adv-x="226" d="M-23 868Q-23 886 -8 894L96 950Q106 955 113 955Q122 955 130 950L234 895Q250 886 250 867Q250 856 243 848T227 839Q225 839 221 840Q219 842 217 842L113 898L9 842Q4 839 0 839Q-9
839 -16 848T-23 868ZM71 30V702Q71 716 83 723T113 731T142 724T155 702V30Q155 16 143 8T113 0T84 8T71 30Z" />
<glyph unicode="&#xcf;" glyph-name="Idieresis" horiz-adv-x="226" d="M8 864T8 881T20 910T49 922T77 910T89 881T77 852T49 839Q32 839 20 851ZM71 30V702Q71 716 83 723T113 731T142 724T155 702V30Q155 16 143 8T113 0T84 8T71 30ZM139 864T139 881T150 910T179
922T207 910T219 881T208 852T179 839T151 851Z" />
<glyph unicode="&#xd0;" glyph-name="Eth" horiz-adv-x="574" d="M-3 383Q-3 397 4 406T22 416H79V702Q79 714 89 722T117 731H294Q392 731 451 679T510 513V218Q510 105 451 53T294 0H117Q100 0 90 8T79 29V351H22Q10 351 4 360T-3 383ZM163 76H294Q357 76 391
111T426 218V513Q426 584 392 619T294 655H163V416H266Q277 416 284 406T292 383T285 361T266 351H163V76Z" />
<glyph unicode="&#xd1;" glyph-name="Ntilde" horiz-adv-x="581" d="M71 30V702Q71 731 113 731Q134 731 148 719T177 678L426 191V702Q426 716 438 723T468 731T497 724T510 702V30Q510 16 498 8T468 0Q436 0 415 38L155 541V30Q155 16 143 8T113 0T84 8T71 30ZM127
887Q127 916 156 932T214 948Q241 948 282 932T349 915Q374 915 395 928T422 942Q433 942 439 933T446 914Q446 883 418 869T362 854Q332 854 292 870T226 887Q201 887 179 873T150 858Q139 858 133 867T127 887Z" />
<glyph unicode="&#xd2;" glyph-name="Ograve" horiz-adv-x="559" d="M64 212V513Q64 626 122 678T279 731T436 679T495 513V212Q495 99 436 47T279 -6T123 46T64 212ZM148 212Q148 70 279 70Q342 70 376 105T411 212V513Q411 584 377 619T279 655Q148 655 148
513V212ZM189 921Q189 934 197 944T217 955Q221 955 227 953L344 891Q357 884 357 869Q357 856 348 846T327 835Q324 835 316 839L203 897Q189 904 189 921Z" />
<glyph unicode="&#xd3;" glyph-name="Oacute" horiz-adv-x="559" d="M64 212V513Q64 626 122 678T279 731T436 679T495 513V212Q495 99 436 47T279 -6T123 46T64 212ZM148 212Q148 70 279 70Q342 70 376 105T411 212V513Q411 584 377 619T279 655Q148 655 148
513V212ZM213 869Q213 884 226 891L343 953Q349 955 353 955Q365 955 373 945T381 921Q381 904 367 897L254 839Q246 835 243 835Q231 835 222 845T213 869Z" />
<glyph unicode="&#xd4;" glyph-name="Ocircumflex" horiz-adv-x="559" d="M64 212V513Q64 626 122 678T279 731T436 679T495 513V212Q495 99 436 47T279 -6T123 46T64 212ZM143 868Q143 886 158 894L262 950Q272 955 279 955Q288 955 296 950L400 895Q416 886
416 867Q416 856 409 848T393 839Q391 839 387 840Q385 842 383 842L279 898L175 842Q170 839 166 839Q157 839 150 848T143 868ZM148 212Q148 70 279 70Q342 70 376 105T411 212V513Q411 584 377 619T279 655Q148 655 148 513V212Z" />
<glyph unicode="&#xd5;" glyph-name="Otilde" horiz-adv-x="559" d="M64 212V513Q64 626 122 678T279 731T436 679T495 513V212Q495 99 436 47T279 -6T123 46T64 212ZM120 887Q120 916 149 932T207 948Q234 948 275 932T342 915Q367 915 388 928T415 942Q426 942
432 933T439 914Q439 883 411 869T355 854Q325 854 285 870T219 887Q194 887 172 873T143 858Q132 858 126 867T120 887ZM148 212Q148 70 279 70Q342 70 376 105T411 212V513Q411 584 377 619T279 655Q148 655 148 513V212Z" />
<glyph unicode="&#xd6;" glyph-name="Odieresis" horiz-adv-x="559" d="M64 212V513Q64 626 122 678T279 731T436 679T495 513V212Q495 99 436 47T279 -6T123 46T64 212ZM148 212Q148 70 279 70Q342 70 376 105T411 212V513Q411 584 377 619T279 655Q148 655 148
513V212ZM174 864T174 881T186 910T215 922T243 910T255 881T243 852T215 839Q198 839 186 851ZM305 864T305 881T316 910T345 922T373 910T385 881T374 852T345 839T317 851Z" />
<glyph unicode="&#xd7;" glyph-name="multiply" horiz-adv-x="400" d="M54 168Q54 179 61 187L154 275L62 362Q54 370 54 382Q54 397 66 409T93 421Q105 421 113 413L200 326L287 413Q295 421 307 421Q322 421 334 409T346 382Q346 370 338 362L247 275L339 187Q347
177 347 168Q347 154 335 142T307 129Q296 129 288 136L200 225L112 136Q104 129 93 129Q79 129 67 141T54 168Z" />
<glyph unicode="&#xd8;" glyph-name="Oslash" horiz-adv-x="559" d="M62 0Q62 9 65 13L97 77Q64 129 64 212V513Q64 626 122 678T279 731Q356 731 411 697L440 755Q448 770 464 770Q477 770 488 761T499 737Q499 730 495 723L459 651Q495 599 495 513V212Q495
99 436 47T279 -6Q196 -6 144 29L122 -14Q115 -30 94 -30Q80 -30 71 -21T62 0ZM148 212Q148 199 150 181L373 623Q339 655 279 655Q148 655 148 513V212ZM182 105Q214 70 279 70Q342 70 376 105T411 212V513Q411 533 408 551L182 105Z" />
<glyph unicode="&#xd9;" glyph-name="Ugrave" horiz-adv-x="573" d="M68 212V702Q68 716 80 723T110 731T139 724T152 702V212Q152 70 286 70Q351 70 386 105T421 212V702Q421 731 463 731Q480 731 492 724T505 702V212Q505 99 445 47T286 -6T128 46T68 212ZM193
921Q193 934 201 944T221 955Q225 955 231 953L348 891Q361 884 361 869Q361 856 352 846T331 835Q328 835 320 839L207 897Q193 904 193 921Z" />
<glyph unicode="&#xda;" glyph-name="Uacute" horiz-adv-x="573" d="M68 212V702Q68 716 80 723T110 731T139 724T152 702V212Q152 70 286 70Q351 70 386 105T421 212V702Q421 731 463 731Q480 731 492 724T505 702V212Q505 99 445 47T286 -6T128 46T68 212ZM213
869Q213 884 226 891L343 953Q349 955 353 955Q365 955 373 945T381 921Q381 904 367 897L254 839Q246 835 243 835Q231 835 222 845T213 869Z" />
<glyph unicode="&#xdb;" glyph-name="Ucircumflex" horiz-adv-x="573" d="M68 212V702Q68 716 80 723T110 731T139 724T152 702V212Q152 70 286 70Q351 70 386 105T421 212V702Q421 731 463 731Q480 731 492 724T505 702V212Q505 99 445 47T286 -6T128 46T68 212ZM147
868Q147 886 162 894L266 950Q276 955 283 955Q292 955 300 950L404 895Q420 886 420 867Q420 856 413 848T397 839Q395 839 391 840Q389 842 387 842L283 898L179 842Q174 839 170 839Q161 839 154 848T147 868Z" />
<glyph unicode="&#xdc;" glyph-name="Udieresis" horiz-adv-x="573" d="M68 212V702Q68 716 80 723T110 731T139 724T152 702V212Q152 70 286 70Q351 70 386 105T421 212V702Q421 731 463 731Q480 731 492 724T505 702V212Q505 99 445 47T286 -6T128 46T68 212ZM180
864T180 881T192 910T221 922T249 910T261 881T249 852T221 839Q204 839 192 851ZM311 864T311 881T322 910T351 922T379 910T391 881T380 852T351 839T323 851Z" />
<glyph unicode="&#xdd;" glyph-name="Yacute" horiz-adv-x="545" d="M17 696Q17 711 33 721T67 731Q85 731 97 709L273 366L448 709Q460 731 478 731T512 721T528 696Q528 688 524 679L317 293Q315 290 315 283V30Q315 16 303 8T273 0T244 8T231 30V283Q231 288
228 293L21 679Q17 688 17 696ZM196 869Q196 884 209 891L326 953Q332 955 336 955Q348 955 356 945T364 921Q364 904 350 897L237 839Q229 835 226 835Q214 835 205 845T196 869Z" />
<glyph unicode="&#xde;" glyph-name="Thorn" horiz-adv-x="501" d="M71 30V709Q71 722 82 730T111 738Q130 738 142 730T154 709V544Q198 620 290 620Q362 620 413 573T464 449V306Q464 232 413 183T295 133Q249 133 209 156T154 212V30Q154 18 142 9T113 0T84
9T71 30ZM154 301Q154 269 188 239T271 208Q315 208 348 235T381 306V449Q381 492 349 518T271 545Q224 545 189 518T154 449V301Z" />
<glyph unicode="&#xdf;" glyph-name="germandbls" horiz-adv-x="566" d="M6 428T6 441T13 464T32 474H100V578Q100 662 142 715T275 768Q354 768 403 722T452 586Q452 531 434 484T382 420Q437 409 483 352T530 219V203Q530 96 474 38T337 -20Q233 -20 233 28Q233
42 239 55T256 68Q260 68 283 60T331 51Q387 51 418 89T450 198V213Q450 278 414 322T306 375Q293 377 287 379T276 389T271 410T276 430T288 439T307 444Q381 452 381 565Q381 625 356 659T279 693T206 661T183 578V29Q183 17 171 9T140 0Q123 0 112 8T100 29V409H32Q20
409 13 418Z" />
<glyph unicode="&#xe0;" glyph-name="agrave" horiz-adv-x="448" d="M28 125Q28 203 88 233T262 264H310V285Q310 335 283 372T200 409Q158 409 126 395T91 380Q77 380 69 393T60 422Q60 445 105 462T202 480Q300 480 346 425T393 286V30Q393 17 382 9T352 0Q336
0 325 8T314 30V70Q246 -8 163 -8Q103 -8 66 26T28 125ZM112 134Q112 97 133 78T189 59Q231 59 270 92T310 161V213H275Q246 213 225 212T182 206T145 193T121 170T112 134ZM128 670Q128 683 136 693T156 704Q160 704 166 702L283 640Q296 634 296 618Q296 605
287 595T266 584Q263 584 255 588L142 646Q128 653 128 670Z" />
<glyph unicode="&#xe1;" glyph-name="aacute" horiz-adv-x="448" d="M28 125Q28 203 88 233T262 264H310V285Q310 335 283 372T200 409Q158 409 126 395T91 380Q77 380 69 393T60 422Q60 445 105 462T202 480Q300 480 346 425T393 286V30Q393 17 382 9T352 0Q336
0 325 8T314 30V70Q246 -8 163 -8Q103 -8 66 26T28 125ZM112 134Q112 97 133 78T189 59Q231 59 270 92T310 161V213H275Q246 213 225 212T182 206T145 193T121 170T112 134ZM136 618Q136 633 149 640L266 702Q272 704 276 704Q288 704 296 694T304 670Q304 653
290 646L177 588Q169 584 166 584Q154 584 145 594T136 618Z" />
<glyph unicode="&#xe2;" glyph-name="acircumflex" horiz-adv-x="448" d="M28 125Q28 203 88 233T262 264H310V285Q310 335 283 372T200 409Q158 409 126 395T91 380Q77 380 69 393T60 422Q60 445 105 462T202 480Q300 480 346 425T393 286V30Q393 17 382 9T352
0Q336 0 325 8T314 30V70Q246 -8 163 -8Q103 -8 66 26T28 125ZM75 617Q75 636 90 643L194 699Q204 704 211 704Q220 704 228 699L332 644Q348 635 348 616Q348 605 341 597T325 588Q323 588 319 589Q317 591 315 591L211 647L107 591Q102 588 98 588Q89 588 82
597T75 617ZM112 134Q112 97 133 78T189 59Q231 59 270 92T310 161V213H275Q246 213 225 212T182 206T145 193T121 170T112 134Z" />
<glyph unicode="&#xe3;" glyph-name="atilde" horiz-adv-x="448" d="M28 125Q28 203 88 233T262 264H310V285Q310 335 283 372T200 409Q158 409 126 395T91 380Q77 380 69 393T60 422Q60 445 105 462T202 480Q300 480 346 425T393 286V30Q393 17 382 9T352 0Q336
0 325 8T314 30V70Q246 -8 163 -8Q103 -8 66 26T28 125ZM53 636Q53 665 82 681T140 697Q167 697 208 681T275 664Q300 664 321 677T348 691Q359 691 365 682T372 663Q372 632 344 618T288 603Q258 603 218 619T152 636Q127 636 105 622T76 607Q65 607 59 616T53
636ZM112 134Q112 97 133 78T189 59Q231 59 270 92T310 161V213H275Q246 213 225 212T182 206T145 193T121 170T112 134Z" />
<glyph unicode="&#xe4;" glyph-name="adieresis" horiz-adv-x="448" d="M28 125Q28 203 88 233T262 264H310V285Q310 335 283 372T200 409Q158 409 126 395T91 380Q77 380 69 393T60 422Q60 445 105 462T202 480Q300 480 346 425T393 286V30Q393 17 382 9T352
0Q336 0 325 8T314 30V70Q246 -8 163 -8Q103 -8 66 26T28 125ZM106 613T106 630T118 659T147 671T175 659T187 630T175 601T147 588Q130 588 118 600ZM112 134Q112 97 133 78T189 59Q231 59 270 92T310 161V213H275Q246 213 225 212T182 206T145 193T121 170T112
134ZM237 613T237 630T248 659T277 671T305 659T317 630T306 601T277 588T249 600Z" />
<glyph unicode="&#xe5;" glyph-name="aring" horiz-adv-x="448" d="M28 125Q28 203 88 233T262 264H310V285Q310 335 283 372T200 409Q158 409 126 395T91 380Q77 380 69 393T60 422Q60 445 105 462T202 480Q300 480 346 425T393 286V30Q393 17 382 9T352 0Q336
0 325 8T314 30V70Q246 -8 163 -8Q103 -8 66 26T28 125ZM112 134Q112 97 133 78T189 59Q231 59 270 92T310 161V213H275Q246 213 225 212T182 206T145 193T121 170T112 134ZM119 673Q119 711 146 739T213 768Q250 768 278 739T307 673Q307 635 279 606T213 576Q174
576 147 605T119 673ZM157 673Q157 651 173 633T213 614Q235 614 251 632T268 673Q268 694 252 711T213 728Q190 728 174 711T157 673Z" />
<glyph unicode="&#xe6;" glyph-name="ae" horiz-adv-x="733" d="M28 124Q28 203 87 233T260 264H308V286Q308 337 281 373T197 410Q157 410 125 395T89 380Q76 380 67 393T58 423Q58 445 104 462T201 480Q309 480 355 391Q381 431 421 455T508 480Q584 480 642
430T701 287Q701 241 681 227T612 213H394V183Q394 128 433 95T534 62Q577 62 613 81T656 101Q669 101 679 89T689 63Q689 38 638 15T525 -8Q468 -8 420 18T345 92Q314 43 268 18T173 -8Q111 -8 70 26T28 124ZM112 132Q112 97 133 78T188 59Q234 59 271 92T308
161V213H274Q236 213 211 211T161 200T124 175T112 132ZM394 269H577Q605 269 613 275T622 300Q622 347 589 380T507 414Q460 414 427 383T394 305V269Z" />
<glyph unicode="&#xe7;" glyph-name="ccedilla" horiz-adv-x="417" d="M42 186V286Q42 372 92 426T241 480Q303 480 345 458T388 411Q388 397 378 384T353 370Q349 370 319 387T247 405Q187 405 156 374T125 286V186Q125 67 248 67Q290 67 321 85T357 103Q373
103 383 90T394 63Q394 40 356 19T261 -7L248 -58Q296 -59 320 -80T344 -131Q344 -163 321 -187T251 -212Q224 -212 198 -205T171 -185Q171 -178 176 -168T189 -157Q191 -157 208 -164T245 -171Q297 -171 297 -134Q297 -98 238 -93L195 -90L217 -7Q130 -1 86 52T42
186Z" />
<glyph unicode="&#xe8;" glyph-name="egrave" horiz-adv-x="465" d="M41 186V291Q41 368 99 424T240 480Q318 480 375 428T432 296Q432 267 425 250T404 225T377 215T343 213H124V183Q124 128 163 95T266 62Q299 62 323 72T363 91T387 101Q401 101 411 89T421
63Q421 40 376 16T263 -8Q165 -8 103 45T41 186ZM124 269H309Q335 269 344 275T353 301Q353 346 320 380T239 414Q192 414 158 383T124 305V269ZM148 670Q148 683 156 693T176 704Q180 704 186 702L303 640Q316 634 316 618Q316 605 307 595T286 584Q283 584 275
588L162 646Q148 653 148 670Z" />
<glyph unicode="&#xe9;" glyph-name="eacute" horiz-adv-x="465" d="M41 186V291Q41 368 99 424T240 480Q318 480 375 428T432 296Q432 267 425 250T404 225T377 215T343 213H124V183Q124 128 163 95T266 62Q299 62 323 72T363 91T387 101Q401 101 411 89T421
63Q421 40 376 16T263 -8Q165 -8 103 45T41 186ZM124 269H309Q335 269 344 275T353 301Q353 346 320 380T239 414Q192 414 158 383T124 305V269ZM156 618Q156 633 169 640L286 702Q292 704 296 704Q308 704 316 694T324 670Q324 653 310 646L197 588Q189 584 186
584Q174 584 165 594T156 618Z" />
<glyph unicode="&#xea;" glyph-name="ecircumflex" horiz-adv-x="465" d="M41 186V291Q41 368 99 424T240 480Q318 480 375 428T432 296Q432 267 425 250T404 225T377 215T343 213H124V183Q124 128 163 95T266 62Q299 62 323 72T363 91T387 101Q401 101 411 89T421
63Q421 40 376 16T263 -8Q165 -8 103 45T41 186ZM102 617Q102 636 117 643L221 699Q231 704 238 704Q247 704 255 699L359 644Q375 635 375 616Q375 605 369 597T352 588Q350 588 346 589Q344 591 342 591L238 647L134 591Q130 588 125 588Q116 588 109 597T102
617ZM124 269H309Q335 269 344 275T353 301Q353 346 320 380T239 414Q192 414 158 383T124 305V269Z" />
<glyph unicode="&#xeb;" glyph-name="edieresis" horiz-adv-x="465" d="M41 186V291Q41 368 99 424T240 480Q318 480 375 428T432 296Q432 267 425 250T404 225T377 215T343 213H124V183Q124 128 163 95T266 62Q299 62 323 72T363 91T387 101Q401 101 411 89T421
63Q421 40 376 16T263 -8Q165 -8 103 45T41 186ZM124 269H309Q335 269 344 275T353 301Q353 346 320 380T239 414Q192 414 158 383T124 305V269ZM132 613T132 630T144 659T173 671T201 659T213 630T201 601T173 588Q156 588 144 600ZM263 613T263 630T274 659T303
671T331 659T343 630T332 601T303 588T275 600Z" />
<glyph unicode="&#xec;" glyph-name="igrave" horiz-adv-x="201" d="M8 670Q8 683 16 693T36 704Q40 704 46 702L163 640Q176 634 176 618Q176 605 167 595T146 584Q143 584 135 588L22 646Q8 653 8 670ZM59 30V445Q59 458 71 466T100 474Q118 474 130 466T142
445V30Q142 19 130 10T100 0T71 9T59 30Z" />
<glyph unicode="&#xed;" glyph-name="iacute" horiz-adv-x="201" d="M24 618Q24 633 37 640L154 702Q160 704 164 704Q176 704 184 694T192 670Q192 653 178 646L65 588Q57 584 54 584Q42 584 33 594T24 618ZM59 30V445Q59 458 71 466T100 474Q118 474 130 466T142
445V30Q142 19 130 10T100 0T71 9T59 30Z" />
<glyph unicode="&#xee;" glyph-name="icircumflex" horiz-adv-x="201" d="M-36 617Q-36 636 -21 643L83 699Q93 704 100 704Q109 704 117 699L221 644Q237 635 237 616Q237 605 231 597T214 588Q212 588 208 589Q206 591 204 591L100 647L-4 591Q-8 588 -13 588Q-22
588 -29 597T-36 617ZM59 30V445Q59 458 71 466T100 474Q118 474 130 466T142 445V30Q142 19 130 10T100 0T71 9T59 30Z" />
<glyph unicode="&#xef;" glyph-name="idieresis" horiz-adv-x="201" d="M-3 613T-3 630T9 659T38 671T66 659T78 630T66 601T38 588Q21 588 9 600ZM59 30V445Q59 458 71 466T100 474Q118 474 130 466T142 445V30Q142 19 130 10T100 0T71 9T59 30ZM128 613T128
630T139 659T168 671T196 659T208 630T197 601T168 588T140 600Z" />
<glyph unicode="&#xf0;" glyph-name="eth" horiz-adv-x="492" d="M41 186V288Q41 366 93 423T218 480Q263 480 302 457T355 398Q347 516 291 597L216 553Q212 550 205 550Q194 550 184 561T174 586Q174 600 185 605L254 645Q214 686 168 688Q148 698 148 719Q148
734 159 747T193 760Q263 760 326 688L394 728Q398 731 404 731Q416 731 426 720T436 696Q436 682 424 676L361 638Q438 514 438 356V186Q438 110 379 51T240 -8Q160 -8 101 50T41 186ZM124 186Q124 139 158 103T240 67T321 103T355 186V291Q355 337 320 371T239
405Q191 405 158 369T124 288V186Z" />
<glyph unicode="&#xf1;" glyph-name="ntilde" horiz-adv-x="503" d="M59 30V445Q59 458 70 466T100 474Q115 474 126 466T138 445V404Q154 436 189 458T272 480Q343 480 395 424T448 288V30Q448 16 436 8T406 0Q390 0 378 8T365 30V288Q365 333 331 369T251 405Q208
405 175 373T142 288V30Q142 19 129 10T100 0Q83 0 71 9T59 30ZM89 636Q89 665 118 681T176 697Q203 697 244 681T311 664Q336 664 357 677T384 691Q395 691 401 682T408 663Q408 632 380 618T324 603Q294 603 254 619T188 636Q163 636 141 622T112 607Q101 607
95 616T89 636Z" />
<glyph unicode="&#xf2;" glyph-name="ograve" horiz-adv-x="477" d="M41 186V288Q41 365 99 422T238 480T377 423T436 288V186Q436 110 377 51T238 -8T100 50T41 186ZM124 186Q124 139 158 103T238 67Q285 67 319 103T353 186V288Q353 333 319 369T238 405T158
369T124 288V186ZM148 670Q148 683 156 693T176 704Q180 704 186 702L303 640Q316 634 316 618Q316 605 307 595T286 584Q283 584 275 588L162 646Q148 653 148 670Z" />
<glyph unicode="&#xf3;" glyph-name="oacute" horiz-adv-x="477" d="M41 186V288Q41 365 99 422T238 480T377 423T436 288V186Q436 110 377 51T238 -8T100 50T41 186ZM124 186Q124 139 158 103T238 67Q285 67 319 103T353 186V288Q353 333 319 369T238 405T158
369T124 288V186ZM156 618Q156 633 169 640L286 702Q292 704 296 704Q308 704 316 694T324 670Q324 653 310 646L197 588Q189 584 186 584Q174 584 165 594T156 618Z" />
<glyph unicode="&#xf4;" glyph-name="ocircumflex" horiz-adv-x="477" d="M41 186V288Q41 365 99 422T238 480T377 423T436 288V186Q436 110 377 51T238 -8T100 50T41 186ZM102 617Q102 636 117 643L221 699Q231 704 238 704Q247 704 255 699L359 644Q375 635
375 616Q375 605 369 597T352 588Q350 588 346 589Q344 591 342 591L238 647L134 591Q130 588 125 588Q116 588 109 597T102 617ZM124 186Q124 139 158 103T238 67Q285 67 319 103T353 186V288Q353 333 319 369T238 405T158 369T124 288V186Z" />
<glyph unicode="&#xf5;" glyph-name="otilde" horiz-adv-x="477" d="M41 186V288Q41 365 99 422T238 480T377 423T436 288V186Q436 110 377 51T238 -8T100 50T41 186ZM79 636Q79 665 108 681T166 697Q193 697 234 681T301 664Q326 664 347 677T374 691Q385 691
391 682T398 663Q398 632 370 618T314 603Q284 603 244 619T178 636Q153 636 131 622T102 607Q91 607 85 616T79 636ZM124 186Q124 139 158 103T238 67Q285 67 319 103T353 186V288Q353 333 319 369T238 405T158 369T124 288V186Z" />
<glyph unicode="&#xf6;" glyph-name="odieresis" horiz-adv-x="477" d="M41 186V288Q41 365 99 422T238 480T377 423T436 288V186Q436 110 377 51T238 -8T100 50T41 186ZM124 186Q124 139 158 103T238 67Q285 67 319 103T353 186V288Q353 333 319 369T238 405T158
369T124 288V186ZM133 613T133 630T145 659T174 671T202 659T214 630T202 601T174 588Q157 588 145 600ZM264 613T264 630T275 659T304 671T332 659T344 630T333 601T304 588T276 600Z" />
<glyph unicode="&#xf7;" glyph-name="divide" horiz-adv-x="449" d="M35 224T35 239T43 264T65 274H383Q395 274 404 264T414 239T405 215T383 205H65Q52 205 44 214ZM168 74Q168 95 184 110T221 125T257 110T273 74Q273 54 257 39T221 23Q200 23 184 38T168 74ZM168
384T168 405T184 441T221 456T257 441T273 405T258 369T221 354T184 369Z" />
<glyph unicode="&#xf8;" glyph-name="oslash" horiz-adv-x="477" d="M41 186V288Q41 365 99 422T238 480Q292 480 340 451L369 499Q375 509 386 509Q395 509 402 502T410 485Q410 478 405 470L376 424Q436 367 436 288V186Q436 110 377 51T238 -8Q180 -8 131 25L102
-22Q96 -32 85 -32Q77 -32 70 -26T63 -11Q63 -6 67 2L98 52Q41 111 41 186ZM124 186Q124 153 141 124L300 385Q270 405 238 405Q191 405 158 369T124 288V186ZM171 90Q202 67 238 67Q285 67 319 103T353 186V288Q353 321 332 352L171 90Z" />
<glyph unicode="&#xf9;" glyph-name="ugrave" horiz-adv-x="505" d="M55 184V444Q55 456 67 465T97 474Q113 474 125 465T138 444V184Q138 139 172 103T253 67Q299 67 333 102T367 184V445Q367 456 379 465T409 474Q427 474 438 466T450 445V184Q450 107 392 50T253
-8Q172 -8 114 49T55 184ZM162 670Q162 683 170 693T190 704Q194 704 200 702L317 640Q330 634 330 618Q330 605 321 595T300 584Q297 584 289 588L176 646Q162 653 162 670Z" />
<glyph unicode="&#xfa;" glyph-name="uacute" horiz-adv-x="505" d="M55 184V444Q55 456 67 465T97 474Q113 474 125 465T138 444V184Q138 139 172 103T253 67Q299 67 333 102T367 184V445Q367 456 379 465T409 474Q427 474 438 466T450 445V184Q450 107 392 50T253
-8Q172 -8 114 49T55 184ZM174 618Q174 633 187 640L304 702Q310 704 314 704Q326 704 334 694T342 670Q342 653 328 646L215 588Q207 584 204 584Q192 584 183 594T174 618Z" />
<glyph unicode="&#xfb;" glyph-name="ucircumflex" horiz-adv-x="505" d="M55 184V444Q55 456 67 465T97 474Q113 474 125 465T138 444V184Q138 139 172 103T253 67Q299 67 333 102T367 184V445Q367 456 379 465T409 474Q427 474 438 466T450 445V184Q450 107
392 50T253 -8Q172 -8 114 49T55 184ZM116 617Q116 636 131 643L235 699Q245 704 252 704Q261 704 269 699L373 644Q389 635 389 616Q389 605 383 597T366 588Q364 588 360 589Q358 591 356 591L252 647L148 591Q144 588 139 588Q130 588 123 597T116 617Z" />
<glyph unicode="&#xfc;" glyph-name="udieresis" horiz-adv-x="505" d="M55 184V444Q55 456 67 465T97 474Q113 474 125 465T138 444V184Q138 139 172 103T253 67Q299 67 333 102T367 184V445Q367 456 379 465T409 474Q427 474 438 466T450 445V184Q450 107 392
50T253 -8Q172 -8 114 49T55 184ZM147 613T147 630T159 659T188 671T216 659T228 630T216 601T188 588Q171 588 159 600ZM278 613T278 630T289 659T318 671T346 659T358 630T347 601T318 588T290 600Z" />
<glyph unicode="&#xfd;" glyph-name="yacute" horiz-adv-x="437" d="M12 440Q12 456 30 468T66 480Q87 480 93 463L225 115L344 463Q351 480 370 480Q387 480 405 468T424 439Q424 434 421 429L269 22L250 -28Q245 -42 230 -76T205 -125T177 -164T142 -200T102
-220T52 -229Q13 -229 13 -192Q13 -156 37 -156Q82 -156 124 -106T182 24L16 429Q12 435 12 440ZM154 618Q154 633 167 640L284 702Q290 704 294 704Q306 704 314 694T322 670Q322 653 308 646L195 588Q187 584 184 584Q172 584 163 594T154 618Z" />
<glyph unicode="&#xfe;" glyph-name="thorn" horiz-adv-x="494" d="M60 -199V731Q60 744 71 752T100 760Q119 760 131 752T143 731V404Q161 436 195 458T273 480Q348 480 400 424T453 288V186Q453 110 400 51T277 -8Q233 -8 197 14T143 70V-199Q143 -210 131 -219T101
-229T72 -220T60 -199ZM143 159Q143 134 177 101T256 67Q301 67 335 103T370 186V288Q370 333 336 369T254 405Q210 405 177 373T143 288V159Z" />
<glyph unicode="&#xff;" glyph-name="ydieresis" horiz-adv-x="437" d="M12 440Q12 456 30 468T66 480Q87 480 93 463L225 115L344 463Q351 480 370 480Q387 480 405 468T424 439Q424 434 421 429L269 22L250 -28Q245 -42 230 -76T205 -125T177 -164T142 -200T102
-220T52 -229Q13 -229 13 -192Q13 -156 37 -156Q82 -156 124 -106T182 24L16 429Q12 435 12 440ZM118 613T118 630T130 659T159 671T187 659T199 630T187 601T159 588Q142 588 130 600ZM249 613T249 630T260 659T289 671T317 659T329 630T318 601T289 588T261 600Z"
/>
<glyph unicode="&#x2013;" glyph-name="endash" horiz-adv-x="473" d="M47 240Q47 255 55 265T76 276H396Q408 276 417 266T426 240T417 215T396 205H76Q47 205 47 240Z" />
<glyph unicode="&#x2014;" glyph-name="emdash" horiz-adv-x="753" d="M47 240Q47 255 55 265T76 276H676Q688 276 697 266T706 240T697 215T676 205H76Q47 205 47 240Z" />
<glyph unicode="&#x2018;" glyph-name="quoteleft" horiz-adv-x="167" d="M30 606Q30 627 75 728Q81 741 95 741Q106 741 115 734T125 716Q125 710 123 706L102 654Q134 641 134 606Q134 584 119 569T82 554Q61 554 46 569T30 606Z" />
<glyph unicode="&#x2019;" glyph-name="quoteright" horiz-adv-x="165" d="M34 689Q34 710 49 725T86 741Q107 741 122 726T138 689T93 567Q87 554 73 554Q62 554 53 560T43 578Q43 585 45 588L66 640Q34 653 34 689Z" />
<glyph unicode="&#x201a;" glyph-name="quotesinglbase" horiz-adv-x="176" d="M36 46Q36 68 51 83T88 99Q109 99 124 84T139 47Q139 24 95 -75Q89 -89 74 -89Q63 -89 54 -82T45 -64Q45 -58 47 -54L68 -2Q36 11 36 46Z" />
<glyph unicode="&#x201c;" glyph-name="quotedblleft" horiz-adv-x="328" d="M30 606Q30 627 75 728Q81 741 95 741Q106 741 115 734T125 716Q125 710 123 706L102 654Q134 641 134 606Q134 584 119 569T82 554Q61 554 46 569T30 606ZM191 606Q191 629 235 728Q242
741 256 741Q267 741 276 734T285 716Q285 710 283 706L262 654Q295 641 295 606Q295 584 280 569T243 554T206 569T191 606Z" />
<glyph unicode="&#x201d;" glyph-name="quotedblright" horiz-adv-x="325" d="M34 689Q34 710 49 725T86 741Q107 741 122 726T138 689Q138 665 93 567Q87 554 73 554Q62 554 53 560T43 578Q43 584 46 588L66 640Q34 653 34 689ZM195 689Q195 710 210 725T247
741Q268 741 283 726T298 689Q298 666 254 567Q248 554 233 554Q222 554 213 560T204 578Q204 585 206 588L227 640Q195 653 195 689Z" />
<glyph unicode="&#x201e;" glyph-name="quotedblbase" horiz-adv-x="337" d="M36 46Q36 68 51 83T88 99Q109 99 124 84T139 47Q139 24 95 -75Q89 -89 74 -89Q63 -89 54 -82T45 -64Q45 -58 47 -54L68 -2Q36 11 36 46ZM196 46Q196 68 211 83T248 99Q269 99 284 84T300
47T255 -75Q249 -89 235 -89Q224 -89 215 -82T205 -64Q205 -62 207 -54L228 -2Q196 11 196 46Z" />
<glyph unicode="&#x2022;" glyph-name="bullet" horiz-adv-x="318" d="M45 256T45 300T79 377T160 410Q205 410 239 377T273 300T239 223T160 189Q114 189 80 222Z" />
<glyph unicode="&#x2039;" glyph-name="guilsinglleft" horiz-adv-x="246" d="M32 269T32 277T46 311L130 468Q138 481 157 481T191 467T206 439Q206 434 203 428L122 277L203 126Q206 122 206 115Q206 101 191 88T156 74T130 87L46 243Q32 269 32 277Z" />
<glyph unicode="&#x203a;" glyph-name="guilsinglright" horiz-adv-x="246" d="M40 115Q40 122 43 126L124 277L43 428Q40 434 40 439Q40 453 55 467T89 481Q110 481 116 468L200 311Q214 285 214 277T200 243L116 87Q109 74 90 74T56 87T40 115Z" />
</font>
</defs>
</svg>
